Ancient.Aliens.-.Unerklaerliche.Phaenomene.S14.German.DOKU.720p.WEB.H264-iND

Die Dokumentarserie geht der Frage nach, ob es möglich ist, dass intelligente Lebensformen bereits vor vielen tausend Jahren die Erde besuchten und mit ihren Technologien die Geschichte und Entwicklung der Menschheit spürbar beeinflussten. Immer wieder tauchen an verschiedenen Orten der Erde Indizien auf, die Rückschlüsse auf außerirdische Einflüsse zulassen und Forschern Rätsel aufgeben. Seien es antike Höhlenzeichnungen von unbekannten Kreaturen, Überreste von Landepisten in Peru oder indische Texte, die die „fliegenden Maschinen der Götter“ beschreiben. In der Sendung werden Berichte über Sichtungen unbekannter Flugobjekte analysiert, mysteriöse Orte wie das Bermuda Dreieck oder die „Zone der Stille“ in Mexiko untersucht und rätselhafte Bauwerke vorgestellt, deren Errichtung durch Menschenhand unmöglich erscheint.

Spoiler:

General
Unique ID : 118446936945763891864760609916377353677 (0x591C0CDE6522D22E092A9F0C71AFCDCD)
Complete name : Ancient.Aliens.-.Unerklaerliche.Phaenomene.S14E01.German.DOKU.720p.WEB.H264-iND\Ancient.Aliens.-.Unerklaerliche.Phaenomene.S14E01.German.DOKU.720p.WEB.H264-iND.mkv
Format : Matroska
Format version : Version 4
File size : 1.30 GiB
Duration : 40 min 18 s
Overall bit rate mode : Constant
Overall bit rate : 4 625 kb/s
Writing application : mkvmerge v71.1.0 (‚Fortitude‘) 64-bit
Writing library : libebml v1.4.4 + libmatroska v1.7.1

Video
ID : 1
Format : AVC
Format/Info : Advanced Video Codec
Format profile : [email protected]
Format settings : CABAC / 4 Ref Frames
Format settings, CABAC : Yes
Format settings, Reference frames : 4 frames
Codec ID : V_MPEG4/ISO/AVC
Duration : 40 min 18 s
Bit rate mode : Constant
Bit rate : 4 309 kb/s
Nominal bit rate : 6 000 kb/s
Width : 1 280 pixels
Height : 720 pixels
Display aspect ratio : 16:9
Frame rate mode : Constant
Frame rate : 25.000 FPS
Color space : YUV
Chroma subsampling : 4:2:0
Bit depth : 8 bits
Scan type : Progressive
Bits/(Pixel*Frame) : 0.187
Stream size : 1.21 GiB (93%)
Default : Yes
Forced : No
Color range : Limited
Color primaries : BT.709
Transfer characteristics : BT.709
Matrix coefficients : BT.709

Audio
ID : 2
Format : E-AC-3
Format/Info : Enhanced AC-3
Commercial name : Dolby Digital Plus
Codec ID : A_EAC3
Duration : 40 min 18 s
Bit rate mode : Constant
Bit rate : 224 kb/s
Channel(s) : 2 channels
Channel layout : L R
Sampling rate : 48.0 kHz
Frame rate : 31.250 FPS (1536 SPF)
Compression mode : Lossy
Stream size : 64.6 MiB (5%)
Title : German
Language : German
Service kind : Complete Main
Default : Yes
Forced : No

Dauer: je 45 Min | Format: MKV | Größe: 28416 MB | IMDb: Ancient Aliens

Download: ddownload.com
Mirror #1: Rapidgator.net
Passwort: movieblog.to

Tags »

Autor:
Datum: Sonntag, 13. August 2023 10:59
Trackback: Trackback-URL Themengebiet: Doku, Low HD - 720p

Feed zum Beitrag: RSS 2.0 Diesen Artikel kommentieren

Kommentar abgeben