Miraculous.Ladybug.and.Cat.Noir.The.Movie.2023.German.MD.1080p.WEB-DL.H.264-GG

Marinette (Stimme im Original: Cristina Valenzuela) schlägt sich mehr schlecht als recht durch den drögen Pariser Schulalltag. Ihr einziger Lichtblick ist und bleibt Adrien (Bryce Papenbrook). Er ist ihr Schwarm, seit sie denken kann. Aber mit ihrer tollpatschigen Art ist sie ihm bestimmt noch nicht aufgefallen. Eines Tages findet sie durch einen Zufall ein magisches Wesen, das große Pläne mit ihr hat und das sie in eine Superheldin verwandelt. Sie macht sich gleich daran, ihre neuen Kräfte als ihr neues Alter Ego Ladybug auszuprobieren, als sie erfährt, dass sie einen Superheldenpartner hat. Was sie zu diesem Zeitpunkt jedoch noch nicht ahnt, ist, dass ausgerechnet Adrien hinter der Maske ihres neuen Superheldenkollegen namens Cat Noir steckt. Zusammen beschließen sie, die Stadt vor einem Schurken retten, der sie mit dunkler Magie bedroht.

Spielfilm-Adaption der gleichnamigen Serie.

Spoiler:

Complete name : Miraculous.Ladybug.and.Cat.Noir.The.Movie.2023.German.MD.1080p.WEB-DL.H.264-GG.mkv
Format : Matroska
Format version : Version 4
File size : 3.61 GiB
Duration : 1 h 42 min
Overall bit rate mode : Variable
Overall bit rate : 5 054 kb/s
Encoded date : UTC 2023-08-15 08:30:53
Writing application : mkvmerge v77.0 (Elemental) 64-bit
Writing library : libebml v1.4.4 + libmatroska v1.7.1 / Lavf58.76.100

Video
ID : 1
Format : AVC
Format/Info : Advanced Video Codec
Format profile : Main@L4
Format settings : CABAC / 3 Ref Frames
Format settings, CABAC : Yes
Format settings, ReFrames : 3 frames
Codec ID : V_MPEG4/ISO/AVC
Duration : 1 h 42 min
Bit rate mode : Variable
Bit rate : 5 000 kb/s
Maximum bit rate : 7 500 kb/s
Width : 1 920 pixels
Height : 1 080 pixels
Display aspect ratio : 16:9
Frame rate mode : Constant
Frame rate : 24.000 FPS
Color space : YUV
Chroma subsampling : 4:2:0
Bit depth : 8 bits
Scan type : Progressive
Bits/(Pixel*Frame) : 0.100
Stream size : 3.48 GiB (96%)
Writing library : x264 core 148 r2727 7d026e8
Encoding settings : cabac=1 / ref=3 / deblock=1:0:0 / analyse=0x1:0x111 / me=umh / subme=10 / psy=1
/ psy_rd=1.00:0.00 / mixed_ref=1 / me_range=24 / chroma_me=1 / trellis=2 / 8x8dct=0 / cqm=0 /
deadzone=21,11 / fast_pskip=1 / chroma_qp_offset=-2 / threads=8 / lookahead_threads=1 /
sliced_threads=0 / nr=0 / decimate=1 / interlaced=0 / bluray_compat=0 / stitchable=1 /
constrained_intra=0 / bframes=2 / b_pyramid=0 / b_adapt=2 / b_bias=0 / direct=3 / weightb=1 /
open_gop=0 / weightp=2 / keyint=48 / keyint_min=25 / scenecut=0 / intra_refresh=0 / rc_lookahead=48
/ rc=2pass / mbtree=1 / bitrate=5000 / ratetol=1.0 / qcomp=0.50 / qpmin=6 / qpmax=51 / qpstep=4 /
cplxblur=20.0 / qblur=0.5 / vbv_maxrate=7500 / vbv_bufsize=10000 / nal_hrd=vbr / filler=0 /
ip_ratio=1.40 / aq=1:1.00
Default : Yes
Forced : No

Audio
ID : 2
Format : AAC LC
Format/Info : Advanced Audio Codec Low Complexity
Codec ID : A_AAC-2
Duration : 1 h 42 min
Bit rate : 192 kb/s
Channel(s) : 2 channels
Channel layout : L R
Sampling rate : 48.0 kHz
Frame rate : 46.875 FPS (1024 SPF)
Compression mode : Lossy
Delay relative to video : 1 ms
Stream size : 138 MiB (4%)
Language : German
Default : Yes
Forced : No

Dauer: 105 Min | Format: MKV | Größe: 2675 MB | IMDb: Miraculous: Ladybug & Cat Noir – Der Film| YouTube | xRel

Download: ddownload.com
Mirror #1: Rapidgator.net
Mirror #2: Nitroflare.com
Passwort: movieblog.to

Tags »

Autor:
Datum: Dienstag, 15. August 2023 21:27
Trackback: Trackback-URL Themengebiet: Animation, HD - 1080p

Feed zum Beitrag: RSS 2.0 Diesen Artikel kommentieren.
Pingen ist momentan nicht möglich.

Kommentar abgeben