…tick….tick….tick.1970.German.AC3D.DL.1080p.WEBRip.x264-Jakopo

In Colusa County ist der Teufel los. Jim Price (Jim Brown) wird als erster Schwarzer zum Sheriff gewählt. Eine Zeitbombe beginnt zu ticken. Rassenfanatiker, Krawallmacher, der ganze Mob ist auf der Straße. Nationalgarde und reguläre Truppen sind angefordert.

Spoiler:

Format : Matroska
Format version : Version 4
File size : 7.02 GiB
Duration : 1 h 36 min
Overall bit rate : 10.4 Mb/s
Encoded date : UTC 2023-01-05 15:59:21
Writing application : mkvmerge v73.0.0 (’25 or 6 to 4′) 64-bit
Writing library : libebml v1.4.4 + libmatroska v1.7.1

Video
ID : 1
Format : AVC
Format/Info : Advanced Video Codec
Format profile : High@L4
Format settings : CABAC / 4 Ref Frames
Format settings, CABAC : Yes
Format settings, Reference frames : 4 frames
Format settings, GOP : M=4, N=48
Codec ID : V_MPEG4/ISO/AVC
Duration : 1 h 36 min
Bit rate mode : Constant
Bit rate : 10 000 kb/s
Width : 1 920 pixels
Height : 800 pixels
Display aspect ratio : 2.40:1
Frame rate mode : Constant
Frame rate : 23.976 (24000/1001) FPS
Color space : YUV
Chroma subsampling : 4:2:0
Bit depth : 8 bits
Scan type : Progressive
Bits/(Pixel*Frame) : 0.272
Stream size : 6.76 GiB (96%)
Language : German
Default : Yes
Forced : No
Color range : Limited
Color primaries : BT.709
Transfer characteristics : BT.709
Matrix coefficients : BT.709

Audio #1
ID : 2
Format : AC-3
Format/Info : Audio Coding 3
Commercial name : Dolby Digital
Codec ID : A_AC3
Duration : 1 h 36 min
Bit rate mode : Constant
Bit rate : 192 kb/s
Channel(s) : 2 channels
Channel layout : L R
Sampling rate : 48.0 kHz
Frame rate : 31.250 FPS (1536 SPF)
Compression mode : Lossy
Stream size : 133 MiB (2%)
Language : German
Service kind : Complete Main
Default : Yes
Forced : No

Audio #2
ID : 3
Format : AC-3
Format/Info : Audio Coding 3
Commercial name : Dolby Digital
Codec ID : A_AC3
Duration : 1 h 36 min
Bit rate mode : Constant
Bit rate : 192 kb/s
Channel(s) : 2 channels
Channel layout : L R
Sampling rate : 48.0 kHz
Frame rate : 31.250 FPS (1536 SPF)
Compression mode : Lossy
Stream size : 133 MiB (2%)
Language : English
Service kind : Complete Main
Default : No
Forced : No

Text
ID : 4
Format : UTF-8
Codec ID : S_TEXT/UTF8
Codec ID/Info : UTF-8 Plain Text
Duration : 1 h 32 min
Bit rate : 49 b/s
Frame rate : 0.188 FPS
Count of elements : 1046
Stream size : 33.6 KiB (0%)
Title : Englisch Full
Language : English
Default : No
Forced : No

Dauer: 96 Min | Format: MKV | Größe: 7054 MB | IMDb: …tick…tick…tick

Download: ddownload.com
Mirror #1: Rapidgator.net
Passwort: movieblog.to

Tags »

Autor:
Datum: Freitag, 11. August 2023 13:25
Trackback: Trackback-URL Themengebiet: HD - 1080p, Krimi

Feed zum Beitrag: RSS 2.0 Diesen Artikel kommentieren

Kommentar abgeben